Nyx processing fails on Intel (timeout)

[If you are posting a new bug, please include the following]

  1. The bug / behavior you have encountered
    symptom. UI Preview does not update, files do not export.

Logs reveal that ffmpeg times out with error:
“”“Waited too long for processing, ending file 7"”"

  1. Your system profile
    MacOS Ventura M2 - PASS - files export okay
    MacOS Monterrey Intel - FAIL

  2. Your log files (Help > Logging > Get Logs for Support)
    “”"
    Input #0, image2, from ‘/path/to/subset1/tcref_0001_24-extract_1080_rect_sRGB_g22_v001.%06d.png’:
    Duration: 00:00:00.28, start: 0.000000, bitrate: N/A
    Stream #0:0: Video: png, rgb48be(pc, gbr/bt2020/unknown), 1480x1080 [SAR 1:1 DAR 37:27], 25 fps, 25 tbr, 25 tbn
    Stream mapping:
    Stream #0:0 (png) → tvai_up:default
    tvai_up:default → Stream #0:0 (png)
    Press [q] to stop, [?] for help
    Waited too long for processing, ending file 7
    [vost#0:0/png @ 0x7facc4d0da40] No filtered frames for output stream, trying to initialize anyway.
    Output #0, image2, to ‘/path/to/subset1_nyx2/%06d.png’:
    Metadata:
    encoder : Lavf60.20.100
    Stream #0:0: Video: png, rgb24(gbr/bt2020/unknown, progressive), 1480x1080 [SAR 1:1 DAR 37:27], q=2-31, 200 kb/s, 25 fps, 25 tbn
    Metadata:
    encoder : Lavc60.37.100 png
    [out#0/image2 @ 0x7facc4d0cc80] video:0kB audio:0kB subtitle:0kB other streams:0kB global headers:0kB muxing overhead: unknown
    [out#0/image2 @ 0x7facc4d0cc80] Output file is empty, nothing was encoded(check -ss / -t / -frames parameters if used)
    frame= 0 fps=0.0 q=0.0 Lsize=N/A time=N/A bitrate=N/A speed=N/A
    “”"

  3. Any screenshots as necessary
    n/a

[Please be sure to have searched for your bug before posting. Duplicate posts will be removed.]
Searching for “NYX” and “Waited too long”, I don’t see any related titles.

Video AI is not slated to work with OSX Monterrey it starts at OSX 10.15.

Can you upload the full logs or send them to the support team for review?

This topic was automatically closed 60 days after the last reply. New replies are no longer allowed.