Close Input on video with completed Export terminates another ongoing Export process (4.2.2)

[If you are posting a new bug, please include the following]

  1. The bug / behavior you have encountered: When I “Close Input” a video in the Input pane, that already has a completed Export process, this causes a video with an ongoing Export Process to terminate.
  2. Your system profile: Intel Core i9-11900KF, GeForce RTX 4060
  3. Your log files (Help > Logging > Get Logs for Support)
    Here is the portion of the log that is relevant to what I was doing on Topaz Video AI at the time this bug occurred. Please note that I redacted the file names. I was closing an input (Redacted.mp4) when this occurred. I’d also like to note that there was a separate issue with the completed Export job for this Input that also was having issues with no displaying as completed. I could file this as a separate bug if necessary but I think this was fixed in 5.0.4.
2024-05-14 15-06-50.199 Thread: 87088 Info Removing video "C:/Users/Public/Videos/Redacted.mp4" 3
2024-05-14 15-06-50.200 Thread: 88036 Info Trying to close the file "C:/Users/Public/Videos/Redacted.mp4" true
2024-05-14 15-06-50.200 Thread: 88036 Info Closing the file "C:/Users/Public/Videos/Redacted.mp4"
2024-05-14 15-06-50.200 Thread: 88036 Info Trying to close the file "C:/Users/Public/Videos/Redacted.mp4" true
2024-05-14 15-06-50.200 Thread: 88036 Info Closing the file "C:/Users/Public/Videos/Redacted.mp4"
2024-05-14 15-06-50.203 Thread: 88036 Info Trying to close the file "C:/Users/Public/Videos/Redacted.mp4" false
2024-05-14 15-06-50.267 Thread: 88036 Info Trying to open the file  "C:/Users/Public/Videos/Redacted2.mp4" false
2024-05-14 15-06-50.269 Thread: 87088 Warning qrc:/filters/views/videosettings/VideoSettingsView.qml:27:5: QML VideoSettingsViewModel: Binding loop detected for property "selectedOutputFps"
2024-05-14 15-06-50.278 Thread: 87088 Info ~TProcess(): destroyed
2024-05-14 15-06-50.278 Thread: 87088 Warning QProcess: Destroyed while process ("C:\\Program Files\\Topaz Labs LLC\\Topaz Video AI\\ffmpeg") is still running.
2024-05-14 15-06-50.298 Thread: 88036 Info ===--- Rotate on open:  3
No accelerated colorspace conversion found from yuv420p to rgba64le.
Input #0, mov,mp4,m4a,3gp,3g2,mj2, from 'C:/Users/Public/Videos/what-else-are-you-selling_1080p.mp4':
  Metadata:
    major_brand     : isom
    minor_version   : 512
    compatible_brands: isomiso2avc1mp41
    encoder         : Lavf58.17.101
  Duration: 00:35:24.29, start: 0.000000, bitrate: 10675 kb/s
  Stream #0:0[0x1](und): Video: h264 (High) (avc1 / 0x31637661), yuv420p(progressive), 1920x1080 [SAR 1:1 DAR 16:9], 10530 kb/s, 23.98 fps, 23.98 tbr, 11988 tbn (default)
      Metadata:
        handler_name    : VideoHandler
        vendor_id       : [0][0][0][0]
  Stream #0:1[0x2](und): Audio: aac (LC) (mp4a / 0x6134706D), 48000 Hz, stereo, fltp, 139 kb/s (default)
      Metadata:
        handler_name    : SoundHandler
        vendor_id       : [0][0][0][0]
  1. Any screenshots as necessary

[Please be sure to have searched for your bug before posting. Duplicate posts will be removed.]

Thanks for reporting this. Tested in v5.0.4 and this bug has been resolved.